Headhunters 2011 mHD BluRay

Go down

Headhunters 2011 mHD BluRay

Post  Admin on Tue Dec 13, 2011 10:15 pm



Code:
F:\Phim\Headhunters.2011.mHD.BluRay.x264-angel.mkv
  General
      Complete name : F:\Phim\Headhunters.2011.mHD.BluRay.x264-angel.mkv
      Format : Matroska
      File size : 1.35 GiB
      Duration : 1h 40mn
      Overall bit rate : 1 925 Kbps
      Encoded date : UTC 2011-12-10 19:15:18
      Writing application : mkvmerge v4.5.0 ('Speed of Light') built on Feb  1 2011 02:10:32
      Writing library : libebml v1.2.0 + libmatroska v1.1.0
  Video #1
      ID : 1
      Format : AVC
      Format/Info : Advanced Video Codec
      Format profile : High@L5.1
      Format settings, CABAC : Yes
      Format settings, ReFrames : 7 frames
      Muxing mode : Container profile=Unknown@5.1
      Codec ID : V_MPEG4/ISO/AVC
      Duration : 1h 40mn
      Bit rate : 1 663 Kbps
      Nominal bit rate : 1 700 Kbps
      Width : 1 024 pixels
      Height : 428 pixels
      Display aspect ratio : 2.35:1
      Original display aspect ratio : 2.35:1
      Frame rate : 24.000 fps
      Resolution : 24 bits
      Colorimetry : 4:2:0
      Scan type : Progressive
      Bits/(Pixel*Frame) : 0.158
      Stream size : 1.16 GiB (86%)
      Title : nguoibanviet.com
      Writing library : x264 core 56 svn-676
      Encoding settings : cabac=1 / ref=4 / deblock=1:-2:-1 / analyse=0x3:0x133 / me=umh / subme=6 / brdo=1 / mixed_ref=1 / me_range=16 / chroma_me=1 / trellis=1 / 8x8dct=1 /

cqm=0 / deadzone=21,11 / chroma_qp_offset=0 / threads=3 / nr=0 / decimate=1 / mbaff=0 / bframes=3 / b_pyramid=1 / b_adapt=1 / b_bias=0 / direct=1 / wpredb=1 / bime=1 /

keyint=250 / keyint_min=25 / scenecut=40(pre) / rc=2pass / bitrate=1700 / ratetol=1.0 / rceq='blurCplx^(1-qComp)' / qcomp=0.60 / qpmin=10 / qpmax=51 / qpstep=4 /

cplxblur=20.0 / qblur=0.5 / ip_ratio=1.40 / pb_ratio=1.30
  Audio #2
      ID : 2
      Format : AC-3
      Format/Info : Audio Coding 3
      Codec ID : A_AC3
      Duration : 1h 40mn
      Bit rate mode : Constant
      Bit rate : 224 Kbps
      Channel(s) : 6 channels
      Channel positions : Front: L C R, Surround: L R, LFE
      Sampling rate : 48.0 KHz
      Stream size : 160 MiB (12%)
      Title : nguoibanviet.com
      Language : Norwegian
  Text #3
      ID : 3
      Format : UTF-8
      Codec ID : S_TEXT/UTF8
      Codec ID/Info : UTF-8 Plain Text
      Title : nguoibanviet.com
      Language : Vietnamese
  Text #4
      ID : 4
      Format : UTF-8
      Codec ID : S_TEXT/UTF8
      Codec ID/Info : UTF-8 Plain Text
      Title : nguoibanviet.com




All links Interchangeable. You Just Reply My Post ,
It Took Hours For Me Too Upload, Post And Distribute The Posts
It Took Less Than 1 Minute For You To Reply And Comment The Topic
I Would Be Appreciated And Motivated


Admin
Admin

Posts : 484
Points : 1445
Join date : 2011-12-02

http://premiumbay.forumms.net

Back to top Go down

Back to top

- Similar topics

 
Permissions in this forum:
You cannot reply to topics in this forum